• 바닥툴즈

  • 홈로그인회원가입언어선택
프로그램소개다운로드사용법,TIP자주묻는질문고객센터서식펀존할인쿠폰요리여성스타일
별툴즈 다운로드 별집 다운로드 별씨 다운로드 별PDF리더 다운로드 별메모 다운로드 별클리너 다운로드
데몬툴즈 안카메라 안캠코더 유투브팟
  • 질문과 답변
  • Home > 고객센터 > 질문과 답변
제   목 [사용법] DVD(VOB파일) 인코딩 오디오 채널 설정법 갈켜주세요
사용OS windows Vista Ultimate x64
작성자 heojun5*** 조회수 25707
등록일 2014-09-14 09:11:12

General
Complete name                    : E:\VIDEO_TS\VTS_01_4.VOB
Format                           : MPEG-PS
File size                        : 1 024 MiB
Duration                         : 26mn 2s
Overall bit rate                 : 5 494 Kbps

Video
ID                               : 224 (0xE0)
Format                           : MPEG Video
Format version                   : Version 2
Format profile                   : Main@Main
Format settings, BVOP            : Yes
Format settings, Matrix          : Default
Duration                         : 26mn 2s
Bit rate mode                    : Constant
Bit rate                         : 5 000 Kbps
Width                            : 720 pixels
Height                           : 576 pixels
Display aspect ratio             : 4:3
Frame rate                       : 25.000 fps
Standard                         : PAL
Color space                      : YUV
Chroma subsampling               : 4:2:0
Bit depth                        : 8 bits
Scan type                        : Progressive
Compression mode                 : Lossy
Bits/(Pixel*Frame)               : 0.482
Stream size                      : 932 MiB (91%)

Audio #1
ID                               : 189 (0xBD)-128 (0x80)
Format                           : AC-3
Format/Info                      : Audio Coding 3
Mode extension                   : CM (complete main)
Muxing mode                      : DVD-Video
Duration                         : 26mn 2s
Bit rate mode                    : Constant
Bit rate                         : 192 Kbps
Channel(s)                       : 2 channels
Channel positions                : Front: L R
Sampling rate                    : 48.0 KHz
Bit depth                        : 16 bits
Compression mode                 : Lossy
Delay relative to video          : -192ms
Stream size                      : 35.8 MiB (3%)

Audio #2
ID                               : 189 (0xBD)-129 (0x81)
Format                           : AC-3
Format/Info                      : Audio Coding 3
Mode extension                   : CM (complete main)
Muxing mode                      : DVD-Video
Duration                         : 26mn 2s
Bit rate mode                    : Constant
Bit rate                         : 192 Kbps
Channel(s)                       : 2 channels
Channel positions                : Front: L R
Sampling rate                    : 48.0 KHz
Bit depth                        : 16 bits
Compression mode                 : Lossy
Delay relative to video          : -192ms
Stream size                      : 35.8 MiB (3%)

일단은 변환할 VOB 파일 정보구요.. 변환할 파일은 한드이며.. 자막 중국어 음성 중국어 입니다.. 한드이기에 한국어도 나옵니다.. 문제는 이망할놈 VOB 변환하려고 시도하면은 다음팟인코더 오디오선택 기능이 있어요 분명 2채널 잡히면서도 1채널바께 안잡혀요 (1채널이 중국어 2채널이 한국어) 그래서 바닥인코더로 보니까 2채널로 잡혀있내요 하지만 오디오선택을 어떻게 합니까? 짐 사진대로 그대로 인코딩하면 중국어로 됩니다.. 도와주십시오..ㅠㅠ 

목록 수정 삭제 이전 다음 쓰기


바닥툴즈 |   2014-09-15 12:20:51  
안녕하십니까 바닥툴즈 입니다.

오디오가 두개 이상일때 첫번재 오디오가 인코딩 되거나
둘다 인코딩 될 수 있습니다.

이때 인코딩 옵션을 넣어서 설정하실 수 있습니다.

환결설정에 보시면 추가 옵션이 있습니다.
해당 추가 옵션에서
-aid 2
라고 기입하시면 2번째 오디오가 인코딩 됩니다.

감사합니다.
heojun5*** |   2014-09-16 04:12:53  
인코딩 테스트 , 인코딩 해봣는데 소리가 아예 안나옵니다 그래서 설정에 증폭 최대인20을 해도 안나오구요.. -aid 2 가아닌 원본 중국어 -aid 1 해도 소리가 나오지 않으며 -aid << 이걸 지워야 중국어 그대로 인코딩되내요 이럴땐 어떻게 해야합니까? 한국어를 따로 녹음해서 편집해야 할까요??
댓글

번호 분류 제목 글쓴이 날짜 조회수
공지 [사용법] [바닥인코더] 엡, 코원, 아이스테이션 인코딩 문의시 확인 바닥툴즈 2010-01-25 84851
공지 [설치] [바닥인코더] 바닥 3.0 버그 관련 구버젼 사용 내용 입니다. 바닥툴즈 2010-05-19 82258
공지 [기타] [바닥인코더] 아이폰4 전용 mp4v 컨버트 - [아이포 한방에] 바닥툴즈 2010-10-15 69725
공지 [오류] [바닥인코더] 바닥 활용 팁 Tachyon 2011-02-25 57387
공지 [설치] [바닥인코더] 바닥인코더 3.0.0.8 버젼 버그 사항 안내 바닥툴즈 2011-09-02 48498
공지 [사용법] [바닥인코더] ★★★★★바이러스 오진문제★★★★★ 바닥툴즈 2011-07-11 48192
공지 [회원] [바닥인코더] 바닥툴즈 회원가입시 이벤트 관련 안내 (무료보험, 부가서비스) 바닥툴즈 2014-09-26 46157
공지 [기타] [바닥인코더] 바닥인코더 3.0.0.8 업데이트 내역 바닥툴즈 2011-07-06 45212
공지 [오류] [바닥인코더] 게시판 이용안내 바닥툴즈 2011-04-13 42280
공지 [] [바닥인코더] ※ [고객센터]ARS 시스템 점검으로 인한 임시 휴무안내 (03/10) 바닥툴즈 2015-03-09 27800
3078 [오류] [바닥인코더] 자막 duha*** 2021-01-28 2371
3077 [사용법] [바닥인코더] 네비게이션 문의 mals*** 2020-10-18 3007
3076 [사용법] [바닥인코더] 윈도우10 설치 문의 손영*** 2020-07-26 3411
3075 [오류] [바닥인코더] 인코딩한 파일이 소리가 나지 않습니다 박찬*** 2019-10-30 4916
3074 [사용법] [바닥인코더] MP4 환경설정이 궁금합니다 oh2*** 2019-02-24 6556
3073 [사용법] [바닥인코더] 제네시스 순정 네비 afm-700bhd 인코.. gooky*** 2019-02-04 6892
3072 [사용법] [바닥인코더] 엠피리버 s1 설정방법 김범*** 2018-12-27 6969
3071 [사용법] [바닥인코더] 탑네비 K9 인코딩 조건 문의 안녕하세*** 2018-09-03 8128
3070 [사용법] [바닥인코더] 플레이어 정보가 거의 없어서 스펙 확인부탁 1 jm0*** 2018-06-27 7269
3069 [오류] [바닥인코더] 한 동영상에서 계속 뒷부분이 인코딩이 되질 .. 최택진입니*** 2018-03-21 8109
  12345  
하루동안 열지 않기

NWZ동영상인코딩

베가팝업노트동영상넣기

directvobsub코덱

갤럭시알파인코딩하는방법

xvid코덱자막

아이팟3세대인코딩

아이팟터치5세대인코딩

코원X7동영상인코딩

바닥인코더무료설치

G4인코딩하는방법